<?xml version="1.0" encoding="UTF-8" standalone="no"?>
<svg
   version="1.2"
   width="205.34mm"
   height="23.84mm"
   viewBox="0 0 20534 2384"
   preserveAspectRatio="xMidYMid"
   fill-rule="evenodd"
   stroke-width="28.222"
   stroke-linejoin="round"
   xml:space="preserve"
   id="svg289"
   sodipodi:docname="clinic_logo.svg"
   inkscape:version="1.1.1 (3bf5ae0d25, 2021-09-20)"
   xmlns:inkscape="http://www.inkscape.org/namespaces/inkscape"
   xmlns:sodipodi="http://sodipodi.sourceforge.net/DTD/sodipodi-0.dtd"
   xmlns="http://www.w3.org/2000/svg"
   xmlns:svg="http://www.w3.org/2000/svg"
   xmlns:ooo="http://xml.openoffice.org/svg/export"><sodipodi:namedview
   id="namedview291"
   pagecolor="#ffffff"
   bordercolor="#666666"
   borderopacity="1.0"
   inkscape:pageshadow="2"
   inkscape:pageopacity="0.0"
   inkscape:pagecheckerboard="0"
   inkscape:document-units="mm"
   showgrid="false"
   inkscape:zoom="1.3799978"
   inkscape:cx="388.04409"
   inkscape:cy="44.927607"
   inkscape:window-width="1284"
   inkscape:window-height="1040"
   inkscape:window-x="1995"
   inkscape:window-y="3"
   inkscape:window-maximized="0"
   inkscape:current-layer="svg289" />
 <defs
   class="ClipPathGroup"
   id="defs157">
  <clipPath
   id="presentation_clip_path"
   clipPathUnits="userSpaceOnUse">
   <rect
   x="0"
   y="0"
   width="20534"
   height="2384"
   id="rect151" />
  </clipPath>
  <clipPath
   id="presentation_clip_path_shrink"
   clipPathUnits="userSpaceOnUse">
   <rect
   x="20"
   y="2"
   width="20493"
   height="2380"
   id="rect154" />
  </clipPath>
 </defs>
 <defs
   id="defs188">
  <font
   id="EmbeddedFont_1"
   horiz-adv-x="2048">
   <font-face
   font-family="Verdana embedded"
   units-per-em="2048"
   font-weight="normal"
   font-style="normal"
   ascent="2037"
   descent="423"
   id="font-face159" />
   <missing-glyph
   horiz-adv-x="2048"
   d="M 0,0 L 2047,0 2047,2047 0,2047 0,0 Z"
   id="missing-glyph161" />
   <glyph
   unicode="y"
   horiz-adv-x="1112"
   d="M 1151,1117 L 499,-412 298,-412 506,54 61,1117 265,1117 608,289 954,1117 1151,1117 Z"
   id="glyph163" />
   <glyph
   unicode="t"
   horiz-adv-x="715"
   d="M 765,10 C 730,1 691,-7 650,-13 608,-19 571,-22 538,-22 424,-22 337,9 278,70 219,131 189,230 189,365 L 189,959 62,959 62,1117 189,1117 189,1438 377,1438 377,1117 765,1117 765,959 377,959 377,450 C 377,391 378,346 381,313 384,280 393,249 409,220 424,193 444,174 470,162 495,149 534,143 587,143 618,143 650,148 683,157 716,166 740,173 755,179 L 765,179 765,10 Z"
   id="glyph165" />
   <glyph
   unicode="s"
   horiz-adv-x="874"
   d="M 983,322 C 983,220 941,136 857,71 772,6 657,-27 511,-27 428,-27 353,-17 284,3 215,22 157,44 110,67 L 110,278 120,278 C 179,233 245,198 318,172 391,145 460,132 527,132 610,132 674,145 721,172 768,199 791,241 791,298 791,342 778,375 753,398 728,421 679,440 607,456 580,462 546,469 503,477 460,485 420,494 385,503 287,529 218,567 177,618 136,668 115,730 115,803 115,849 125,892 144,933 163,974 191,1010 230,1042 267,1073 315,1098 373,1117 430,1135 495,1144 566,1144 633,1144 700,1136 769,1120 837,1103 894,1083 939,1060 L 939,859 929,859 C 881,894 823,924 754,949 685,973 618,985 552,985 483,985 425,972 378,946 331,919 307,880 307,828 307,782 321,747 350,724 378,701 423,682 486,667 521,659 560,651 603,643 646,635 681,628 710,621 797,601 865,567 912,518 959,469 983,403 983,322 Z"
   id="glyph167" />
   <glyph
   unicode="r"
   horiz-adv-x="716"
   d="M 882,912 L 872,912 C 844,919 817,924 791,927 764,930 733,931 697,931 639,931 583,918 529,893 475,867 423,834 373,793 L 373,0 185,0 185,1117 373,1117 373,952 C 448,1012 514,1055 571,1080 628,1105 686,1117 745,1117 778,1117 801,1116 816,1115 831,1113 853,1110 882,1105 L 882,912 Z"
   id="glyph169" />
   <glyph
   unicode="p"
   horiz-adv-x="980"
   d="M 1168,572 C 1168,481 1155,399 1129,324 1103,249 1066,185 1019,133 975,84 923,46 864,19 804,-8 741,-22 674,-22 616,-22 564,-16 517,-3 470,10 422,29 373,56 L 373,-412 185,-412 185,1117 373,1117 373,1000 C 423,1042 479,1077 542,1106 604,1134 670,1148 741,1148 876,1148 981,1097 1056,996 1131,894 1168,753 1168,572 Z M 974,567 C 974,702 951,802 905,869 859,936 788,969 693,969 639,969 585,957 530,934 475,911 423,880 373,842 L 373,209 C 426,185 472,169 511,160 549,151 592,147 641,147 746,147 827,182 886,253 945,324 974,428 974,567 Z"
   id="glyph171" />
   <glyph
   unicode="o"
   horiz-adv-x="1033"
   d="M 1137,558 C 1137,376 1090,232 997,127 904,22 779,-31 622,-31 464,-31 339,22 246,127 153,232 106,376 106,558 106,740 153,884 246,990 339,1095 464,1148 622,1148 779,1148 904,1095 997,990 1090,884 1137,740 1137,558 Z M 943,558 C 943,703 915,810 858,881 801,951 723,986 622,986 520,986 441,951 385,881 328,810 300,703 300,558 300,418 328,312 385,240 442,167 521,131 622,131 722,131 801,167 858,239 915,310 943,417 943,558 Z"
   id="glyph173" />
   <glyph
   unicode="i"
   horiz-adv-x="239"
   d="M 387,1304 L 175,1304 175,1499 387,1499 387,1304 Z M 375,0 L 187,0 187,1117 375,1117 375,0 Z"
   id="glyph175" />
   <glyph
   unicode="h"
   horiz-adv-x="954"
   d="M 1119,0 L 931,0 931,636 C 931,687 928,736 922,781 916,826 905,861 889,886 872,914 848,935 817,949 786,962 745,969 695,969 644,969 590,956 534,931 478,906 424,873 373,834 L 373,0 185,0 185,1556 373,1556 373,993 C 432,1042 492,1080 555,1107 618,1134 682,1148 748,1148 869,1148 961,1112 1024,1039 1087,966 1119,862 1119,725 L 1119,0 Z"
   id="glyph177" />
   <glyph
   unicode="e"
   horiz-adv-x="1033"
   d="M 1120,539 L 297,539 C 297,470 307,411 328,360 349,309 377,267 413,234 448,202 489,178 537,162 584,146 637,138 694,138 770,138 847,153 924,184 1001,214 1055,244 1088,273 L 1098,273 1098,68 C 1035,41 970,19 904,1 838,-17 769,-26 696,-26 511,-26 366,24 262,125 158,225 106,367 106,552 106,735 156,880 256,987 355,1094 486,1148 649,1148 800,1148 916,1104 998,1016 1079,928 1120,803 1120,641 L 1120,539 Z M 937,683 C 936,782 912,858 863,912 814,966 739,993 639,993 538,993 458,963 399,904 339,845 305,771 297,683 L 937,683 Z"
   id="glyph179" />
   <glyph
   unicode="c"
   horiz-adv-x="900"
   d="M 1011,70 C 948,40 889,17 833,0 776,-17 716,-25 653,-25 572,-25 498,-13 431,11 364,34 306,70 258,118 209,166 172,227 145,300 118,373 105,459 105,557 105,740 155,883 256,987 356,1091 488,1143 653,1143 717,1143 780,1134 842,1116 903,1098 960,1076 1011,1050 L 1011,841 1001,841 C 944,886 885,920 824,944 763,968 703,980 645,980 538,980 454,944 393,873 331,801 300,696 300,557 300,422 330,319 391,247 451,174 536,138 645,138 683,138 722,143 761,153 800,163 836,176 867,192 894,206 920,221 944,237 968,252 987,266 1001,277 L 1011,277 1011,70 Z"
   id="glyph181" />
   <glyph
   unicode="a"
   horiz-adv-x="953"
   d="M 1053,0 L 866,0 866,119 C 849,108 827,92 799,72 770,51 743,35 716,23 685,8 649,-5 608,-15 567,-26 520,-31 465,-31 364,-31 279,2 209,69 139,136 104,221 104,324 104,409 122,477 159,530 195,582 247,623 314,653 382,683 464,703 559,714 654,725 757,733 866,738 L 866,767 C 866,810 859,845 844,873 829,901 807,923 779,939 752,954 720,965 683,970 646,975 607,978 566,978 517,978 462,972 401,959 340,946 278,927 213,902 L 203,902 203,1093 C 240,1103 293,1114 362,1126 431,1138 500,1144 567,1144 646,1144 714,1138 773,1125 831,1112 881,1089 924,1058 966,1027 998,988 1020,939 1042,890 1053,830 1053,758 L 1053,0 Z M 866,275 L 866,586 C 809,583 741,578 664,571 586,564 524,555 479,542 425,527 381,503 348,471 315,438 298,394 298,337 298,273 317,225 356,193 395,160 454,144 533,144 599,144 659,157 714,183 769,208 819,239 866,275 Z"
   id="glyph183" />
   <glyph
   unicode="P"
   horiz-adv-x="980"
   d="M 1174,1039 C 1174,973 1163,912 1140,856 1117,799 1084,750 1043,709 992,658 931,619 861,594 791,568 703,555 596,555 L 398,555 398,0 200,0 200,1489 604,1489 C 693,1489 769,1482 831,1467 893,1452 948,1428 996,1396 1053,1358 1097,1311 1128,1254 1159,1197 1174,1126 1174,1039 Z M 968,1034 C 968,1085 959,1130 941,1168 923,1206 896,1237 859,1261 827,1282 791,1297 750,1306 709,1315 657,1319 594,1319 L 398,1319 398,724 565,724 C 645,724 710,731 760,746 810,760 851,783 882,814 913,846 936,880 949,915 962,950 968,990 968,1034 Z"
   id="glyph185" />
  </font>
 </defs>
 <defs
   id="defs219">
  <font
   id="EmbeddedFont_2"
   horiz-adv-x="2048">
   <font-face
   font-family="Verdana embedded"
   units-per-em="2048"
   font-weight="bold"
   font-style="normal"
   ascent="2037"
   descent="423"
   id="font-face190" />
   <missing-glyph
   horiz-adv-x="2048"
   d="M 0,0 L 2047,0 2047,2047 0,2047 0,0 Z"
   id="missing-glyph192" />
   <glyph
   unicode="s"
   horiz-adv-x="1086"
   d="M 1146,356 C 1146,240 1094,147 990,76 886,5 744,-31 563,-31 463,-31 372,-22 291,-3 210,16 144,36 95,59 L 95,355 128,355 C 146,342 167,329 191,314 214,299 248,282 291,265 328,250 371,237 418,226 465,215 516,209 570,209 641,209 693,217 727,233 761,248 778,271 778,302 778,329 768,349 748,362 728,374 690,386 634,397 607,403 571,410 526,417 480,424 438,432 401,442 299,469 223,510 174,567 125,623 100,693 100,777 100,885 151,975 254,1047 356,1118 496,1154 673,1154 757,1154 838,1146 915,1129 992,1112 1052,1093 1095,1074 L 1095,790 1064,790 C 1011,827 950,857 882,880 813,903 744,914 674,914 616,914 567,906 528,890 488,874 468,851 468,822 468,795 477,775 495,761 513,747 555,733 622,719 659,712 698,705 741,698 783,691 825,682 868,671 963,646 1033,608 1078,555 1123,502 1146,435 1146,356 Z"
   id="glyph194" />
   <glyph
   unicode="r"
   horiz-adv-x="821"
   d="M 984,780 L 952,780 C 937,785 912,789 878,792 844,795 816,796 793,796 742,796 697,793 658,786 618,779 576,768 531,752 L 531,0 170,0 170,1123 531,1123 531,958 C 610,1026 679,1071 738,1094 796,1116 850,1127 899,1127 912,1127 926,1127 942,1126 958,1125 972,1124 984,1123 L 984,780 Z"
   id="glyph196" />
   <glyph
   unicode="l"
   horiz-adv-x="371"
   d="M 531,0 L 170,0 170,1556 531,1556 531,0 Z"
   id="glyph198" />
   <glyph
   unicode="i"
   horiz-adv-x="425"
   d="M 531,0 L 170,0 170,1123 531,1123 531,0 Z M 541,1283 L 160,1283 160,1556 541,1556 541,1283 Z"
   id="glyph200" />
   <glyph
   unicode="h"
   horiz-adv-x="1138"
   d="M 1298,0 L 937,0 937,557 C 937,602 935,648 930,693 925,738 917,771 906,792 893,817 873,835 848,846 822,857 786,863 740,863 707,863 674,858 641,847 607,836 570,819 531,796 L 531,0 170,0 170,1556 531,1556 531,999 C 595,1049 656,1087 715,1114 774,1141 840,1154 912,1154 1033,1154 1127,1119 1196,1048 1264,977 1298,872 1298,731 L 1298,0 Z"
   id="glyph202" />
   <glyph
   unicode="e"
   horiz-adv-x="1192"
   d="M 1276,495 L 452,495 C 457,407 491,340 553,293 614,246 705,223 825,223 901,223 975,237 1046,264 1117,291 1174,321 1215,352 L 1255,352 1255,63 C 1174,30 1097,7 1025,-8 953,-23 873,-30 786,-30 561,-30 388,21 268,122 148,223 88,368 88,555 88,740 145,887 259,996 372,1104 528,1158 726,1158 909,1158 1046,1112 1138,1020 1230,927 1276,794 1276,621 L 1276,495 Z M 918,706 C 916,781 897,838 862,876 827,914 772,933 697,933 628,933 571,915 526,879 481,843 456,785 451,706 L 918,706 Z"
   id="glyph204" />
   <glyph
   unicode="c"
   horiz-adv-x="1060"
   d="M 755,-30 C 657,-30 568,-18 487,5 406,28 335,64 275,113 216,162 170,223 137,297 104,371 88,458 88,557 88,662 106,752 141,828 176,904 224,967 287,1017 348,1064 418,1099 497,1121 576,1143 659,1154 744,1154 821,1154 891,1146 956,1129 1021,1112 1081,1091 1137,1064 L 1137,757 1086,757 C 1072,769 1055,783 1036,799 1016,815 992,831 963,846 936,861 906,873 873,883 841,892 803,897 760,897 664,897 590,867 538,806 487,745 461,662 461,557 461,449 487,367 540,311 593,255 668,227 766,227 811,227 852,232 888,243 924,253 954,265 978,279 1001,292 1021,306 1038,321 1055,336 1071,350 1086,364 L 1137,364 1137,57 C 1080,30 1021,9 960,-6 898,-22 830,-30 755,-30 Z"
   id="glyph206" />
   <glyph
   unicode="a"
   horiz-adv-x="1113"
   d="M 850,294 L 850,527 C 801,523 749,518 692,511 635,504 592,495 563,486 527,475 500,458 481,437 462,415 452,387 452,352 452,328 454,309 458,295 462,280 472,266 488,253 503,240 522,230 543,223 564,217 598,214 643,214 679,214 716,221 753,236 790,251 822,270 850,294 Z M 850,119 C 831,104 807,87 778,66 749,45 722,29 697,17 662,1 625,-11 587,-18 549,-26 507,-30 462,-30 355,-30 266,3 194,69 122,135 86,219 86,322 86,404 104,471 141,523 178,575 230,616 297,646 364,676 446,697 545,710 644,723 746,732 852,738 L 852,744 C 852,806 827,849 776,873 725,896 651,908 552,908 493,908 429,898 362,877 295,856 246,839 217,828 L 184,828 184,1099 C 222,1109 284,1121 370,1135 455,1148 541,1155 627,1155 832,1155 980,1124 1071,1061 1162,998 1207,899 1207,764 L 1207,0 850,0 850,119 Z"
   id="glyph208" />
   <glyph
   unicode="R"
   horiz-adv-x="1430"
   d="M 1025,1033 C 1025,1070 1017,1102 1002,1129 987,1156 960,1177 923,1192 897,1203 867,1209 832,1212 797,1214 757,1215 711,1215 L 572,1215 572,814 690,814 C 751,814 803,817 844,823 885,829 920,843 948,864 975,885 994,908 1007,933 1019,958 1025,991 1025,1033 Z M 1624,0 L 1155,0 750,546 572,546 572,0 190,0 190,1489 834,1489 C 922,1489 998,1484 1061,1474 1124,1464 1184,1442 1239,1409 1295,1376 1340,1333 1373,1280 1406,1227 1422,1160 1422,1080 1422,970 1397,880 1346,811 1295,742 1222,684 1127,638 L 1624,0 Z"
   id="glyph210" />
   <glyph
   unicode="L"
   horiz-adv-x="1086"
   d="M 1264,0 L 190,0 190,1489 574,1489 574,288 1264,288 1264,0 Z"
   id="glyph212" />
   <glyph
   unicode="H"
   horiz-adv-x="1324"
   d="M 1525,0 L 1141,0 1141,656 574,656 574,0 190,0 190,1489 574,1489 574,944 1141,944 1141,1489 1525,1489 1525,0 Z"
   id="glyph214" />
   <glyph
   unicode=" "
   horiz-adv-x="688"
   id="glyph216" />
  </font>
</defs>
</svg>
